Page 1 of 1

[Fixed] How did "hollywood" get into Debian with that music?

PostPosted: 2019-11-07 01:15
by stevepusser
It's not public domain, that's for sure. The debian/copyright file just says "mi.mp4" is copyright by the program's developer, which I'm sure that Famous Music would have something to say about: https://variety.com/2017/film/news/miss ... 202519677/

This was a concern of mine when I ported Hollywood from its PPA for MX Linux a couple years ago, so I replaced that file with some DFSG-safe dramatic music released under a Creative Commons license.

Re: Uh-oh. How did "hollywood" get into Debian with that mus

PostPosted: 2019-11-07 02:10
by sunrat
It seems to be the same version available on archive.org of which the pages claim to be CC licence. Also on YouTube. Said to be the version remixed by U2 for the "Mission Impossible" film with Tom Cruise.
The CC claims would appear to be BS.

https://archive.org/details/MissionImpossibleTheme
https://www.youtube.com/watch?v=_4A_4SpEIX4

Re: Uh-oh. How did "hollywood" get into Debian with that mus

PostPosted: 2019-11-07 03:09
by stevepusser
I'd file a bug report against it if I was running pure Debian. I wonder if I can do that in a Live session?

Re: Uh-oh. How did "hollywood" get into Debian with that mus

PostPosted: 2019-11-07 06:16
by sunrat
I filed a bug report.
Decided it was about time I familiarised myself with reportbug after using Sid for so many years. It baffled me first time I tried some time ago.
I had to actually install hollywood to report the bug. It works and is quite amusing, but curiously it doesn't play the mi.mp4 video on this system!

Later:- got the bug tracker no. - https://bugs.debian.org/cgi-bin/bugrepo ... bug=944275

Re: Uh-oh. How did "hollywood" get into Debian with that mus

PostPosted: 2019-11-10 14:26
by trinidad
I have not been able to find if it is public domain. It may be, which would make CC moot.

https://en.wikipedia.org/wiki/Theme_fro ... Impossible

TC

Re: Uh-oh. How did "hollywood" get into Debian with that mus

PostPosted: 2019-11-10 20:28
by stevepusser
It's not public domain at all. A Sony subsidiary owns the copyright to the music--no doubt about that. When I repackaged hollywood from the PPA for MX Linux before it made it into Debian, I replaced mi.mp4 with some CC-licensed music that I thought sounded similar.

The mi.mp4 file just has the audio, no video. IDK why the developer used that format, unless that's the file they got from archive.org.

Since the maintainer is also the developer, it will be interesting to see if they admit to the problem.

Re: Uh-oh. How did "hollywood" get into Debian with that mus

PostPosted: 2019-11-10 20:44
by sunrat
stevepusser wrote:The mi.mp4 file just has the audio, no video. IDK why the developer used that format, unless that's the file they got from archive.org.

The file does have video, it's just an analyser display of the audio. It seems to be exactly the same audio as the file from archive.org, although archive.org does not have the video.

Code: Select all
ffmpeg -i mi.mp4
...
Input #0, mpegts, from 'mi.mp4':
  Duration: 00:03:28.49, start: 1.494422, bitrate: 161 kb/s
  Program 1
    Metadata:
      service_name    : Service01
      service_provider: Libav
    Stream #0:0[0x100]: Video: h264 (High) ([27][0][0][0] / 0x001B), yuv420p(progressive), 128x96 [SAR 21:16 DAR 7:4], 17 fps, 17 tbr, 90k tbn, 34 tbc
    Stream #0:1[0x101]: Audio: aac (LC) ([15][0][0][0] / 0x000F), 44100 Hz, stereo, fltp, 59 kb/s

Re: Uh-oh. How did "hollywood" get into Debian with that mus

PostPosted: 2019-11-14 21:21
by stevepusser
It appears that the offending mi.mp4 file has been removed in the latest update in Sid and testing, thanks to sunrat's bug report. But you'll now have to provide your own soundtrack.

I would argue that a DFSG copyright violation is sufficient cause for also fixing it in Stable, though. Another bug report?

Re: [Fixed] How did "hollywood" get into Debian with that mu

PostPosted: 2019-11-14 21:38
by sunrat
stevepusser wrote:I would argue that a DFSG copyright violation is sufficient cause for also fixing it in Stable, though. Another bug report?

The bug report I submitted is for Stable
Package: hollywood
Version: 1.14-1.1
Severity: normal
...
-- System Information:
Debian Release: 10.1
APT prefers stable-updates
APT policy: (500, 'stable-updates'), (500, 'stable')
Architecture: amd64 (x86_64)

I mentioned it also affects Testing and Unstable.

It's good that the dev/maintainer has taken action. I'm guessing he went by the CC claim on archive.org and may have been unaware of the copyright status. (glass half full view ;) )